<svg xmlns="http://www.w3.org/2000/svg">
<defs>
<font
   id="FontID2"
   horiz-adv-x="556"
   font-variant="normal"
   font-weight="400"
   horiz-origin-x="0"
   horiz-origin-y="0"
   vert-origin-x="45"
   vert-origin-y="90"
   vert-adv-y="90"
   style="font-variant:normal;font-weight:400">
	<font-face
   font-family="Penguin"
   id="font-face4206">
		<font-face-src>
			<font-face-name
   name="Penguin" />
		</font-face-src>
	</font-face>
   <missing-glyph
   id="missing-glyph4210"><path
     d="M0 0z"
     id="path4208" /></missing-glyph>
   <glyph
   unicode=" "
   horiz-adv-x="277"
   d=""
   id="glyph4212" />
   <glyph
   unicode="&amp;"
   horiz-adv-x="594"
   d="M179.829 455.173c-20.3355,25.4981 -34.6594,45.9979 -42.999,61.6638 -8.16159,15.6659 -12.8312,31.0031 -13.8309,46.1623 6.34029,37.672 22.4991,68.3328 48.1616,92.1739 25.8405,23.8275 58.1719,35.8233 96.8435,35.8233 40.1643,-1.49264 71.4961,-14.3239 93.9952,-38.836 22.6635,-24.4985 34.0021,-56.1588 34.0021,-95.1592 -4.66963,-43.3276 -34.495,-84.341 -89.1612,-122.999l168.326 -243.163c3.1633,11.8316 4.83396,28.8257 4.83396,51.1606 0,35.837 -3.66998,70.4964 -10.9962,104.005l48.9969 0c12.6669,-36.1657 18.9935,-73.5091 18.9935,-112.167 0,-44.5053 -6.3266,-80.1643 -18.9935,-107.004l90.8319 -126.833 -115.002 0 -31.0031 42.8346c-44.6559,-40.5067 -104.663,-60.8285 -179.829,-60.8285 -38.6717,0 -75.166,7.99726 -109.497,23.8275 -34.3307,15.8302 -63.0058,38.4937 -86.5046,68.0041 -23.3345,29.4967 -38.658,63.6631 -45.9979,102.157 -2.99897,15.1729 -5.66929,33.8377 -7.99726,55.8439 0.671003,32.4957 7.16193,62.1568 19.8288,88.9969 12.5026,26.8264 29.3324,50.9962 50.6676,72.3314 21.3352,21.4995 46.8333,41.9993 76.33,62.0062zm74.0021 54.8305c14.1732,7.32626 27.3331,18.3362 39.1647,33.1667 12.0096,14.6662 18.0075,29.6611 18.0075,44.834 0,16.9942 -6.83328,31.3317 -20.3355,42.8346 -13.6666,11.4892 -29.1681,17.1585 -46.8333,17.1585 -12.8312,0 -24.6628,-4.16296 -35.3304,-12.5026 -10.8319,-8.32592 -17.3365,-18.5005 -19.6645,-30.4964 0.999658,-0.492982 1.65697,-0.671003 1.82129,-0.83533 0.178021,0 0.178021,-0.164327 0.178021,-0.164327l62.9921 -93.9952zm180.336 -426.005l-207.162 303.006c-21.0065,-14.5019 -38.343,-31.1674 -52.0096,-50.1746 -13.6666,-18.8292 -23.8275,-38.658 -30.6607,-59.3358 -6.66895,-20.8285 -10.5033,-41.657 -11.3386,-62.4991 1.99932,-32.3314 10.0103,-61.6638 24.1698,-87.8329 14.1732,-26.1554 33.8377,-47.1619 58.8292,-62.8278 25.0051,-15.8302 54.0089,-24.1698 87.0113,-25.3338 46.1623,2.16364 89.8322,17.1722 131.161,44.9983z"
   id="glyph4214" />
   <glyph
   unicode="-"
   horiz-adv-x="331"
   d="M37.001 189.004l257.994 138.829 0 -85.8336 -257.994 -136.994 0 83.9986z"
   id="glyph4216" />
   <glyph
   unicode="A"
   horiz-adv-x="556"
   d="M7.99726 0l262.841 666.005 1.99932 0 274.166 -666.005 -127.176 0 -65.9911 169.997 -225.005 0 -65.0051 -169.997 -55.8302 0zm138.008 210.996l189.825 0 -95.9945 238.001 -93.8309 -238.001z"
   id="glyph4218" />
   <glyph
   unicode="I"
   horiz-adv-x="277"
   d="M76.0014 647.997l122.999 0 0 -647.997 -122.999 0 0 647.997z"
   id="glyph4220" />
   <glyph
   unicode="S"
   horiz-adv-x="520"
   d="M61.0065 81.9993l43.9986 35.0017c16.1588,-25.4981 31.8247,-44.341 46.8333,-56.1725 14.9949,-11.8316 32.66,-19.8288 53.1599,-23.6631 5.34064,-0.999658 10.6676,-1.83499 16.0082,-2.32797 5.49127,-0.506676 9.83225,-1.16398 12.8312,-1.83499 32.3314,0.999658 60.1575,10.6676 83.6563,29.1681 23.5125,18.5005 36.0014,42.8346 37.5077,72.8244 0,42.506 -11.5029,74.8374 -34.6731,97.1722 -23.1565,22.3348 -56.3232,40.671 -99.5002,54.9949 -34.3307,12.3382 -63.1565,25.4981 -86.6553,39.3427 -23.5125,13.9952 -43.0127,33.3311 -58.1719,58.3225 -15.3372,24.8408 -23.0058,56.3369 -23.0058,94.1732 1.17768,37.8364 11.8316,71.0031 32.1671,99.5002 20.1712,28.4971 46.9976,50.3389 80.5067,65.1695 33.4954,14.8305 69.8254,22.3348 109.168,22.3348 25.4981,-1.17768 50.1609,-6.66895 74.1664,-16.6655 23.9918,-9.84594 45.3269,-23.3345 63.8275,-40.178 18.5005,-16.9942 32.6737,-36.33 42.1636,-58.1582l-40.9997 -28.0041c-27.3331,59.1715 -70.9894,89.8322 -130.996,91.9959 -29.8391,0 -54.9949,-9.16125 -75.3304,-27.6618 -20.4998,-18.3362 -31.6741,-43.5056 -33.6734,-75.3304 0,-28.8394 7.33995,-51.3386 21.8418,-67.4974 14.6662,-16.1725 39.6577,-32.6737 75.166,-49.5036 25.9911,-11.1743 51.1606,-22.1705 75.3304,-32.8381 24.1698,-10.8319 45.9979,-23.3345 65.3338,-37.494 19.5002,-14.3376 35.6727,-33.3311 48.3396,-57.3365 12.6532,-24.0055 18.9935,-53.8309 18.9935,-89.3393 -0.506676,-28.9901 -6.9976,-55.6659 -19.5002,-80.1643 -12.5026,-24.4985 -29.3324,-45.3269 -50.5033,-62.6635 -20.9928,-17.1722 -44.6696,-30.3321 -71.1674,-39.4933 -26.3334,-9.17494 -53.5022,-13.6666 -81.657,-13.6666 -40,0 -77.5077,8.49024 -112.674,25.6624 -35.3304,16.9942 -62.8278,41.835 -82.4923,74.3307z"
   id="glyph4222" />
   <glyph
   unicode="a"
   horiz-adv-x="388"
   d="M7.99726 0l98.8429 364.834c8.83259,29.6611 19.3221,50.1609 31.8247,61.3352 12.3382,11.1606 29.0038,16.8299 50.1746,16.8299 24.1561,0 41.8213,-5.50496 53.1599,-16.6655 11.3386,-10.9962 21.4995,-33.4954 30.8388,-67.4974l108.168 -358.836 -96.1725 0 -36.8367 130.996 -163.999 0 -35.0017 -130.996 -40.9997 0zm228.004 173.995l-54.1732 191.003c-2.83465,8.66826 -4.99829,13.8309 -6.65526,15.5015 -1.83499,1.67066 -4.83396,2.50599 -9.17494,2.50599 -4.66963,0 -7.66861,-1.34201 -9.32557,-4.01232 -1.67066,-2.65662 -3.8343,-7.99726 -6.83328,-15.9945l-52.0096 -189.004 138.172 0z"
   id="glyph4224" />
   <glyph
   unicode="b"
   horiz-adv-x="462"
   d="M56.9942 715.002l89.0106 0 0 -282.999 76.823 0c43.67,0 82.1773,-8.17528 115.344,-24.3341 33.1667,-16.1725 59.3221,-39.8357 78.3293,-70.8388 18.9935,-31.0031 29.8254,-68.1684 32.4957,-111.66 0,-41.164 -7.99726,-78.836 -23.8275,-113.002 -15.8302,-34.3307 -39.3427,-61.4995 -70.3321,-81.835 -31.0031,-20.1712 -67.8398,-30.3321 -110.839,-30.3321l-187.004 0 0 715.002zm89.0106 -683.999l58.9935 0c41.6707,0 74.8374,15.6659 100.007,47.1619 24.9914,31.3317 38.0007,73.0024 39.0003,124.834 0,33.3311 -5.01198,65.0051 -15.0086,94.8305 -9.99658,29.8391 -26.6621,54.3376 -49.8322,73.5091 -23.1701,19.1578 -53.1599,28.6614 -90.1609,28.6614l-42.999 0 0 -368.997z"
   id="glyph4226" />
   <glyph
   unicode="d"
   horiz-adv-x="462"
   d="M316.001 400l-62.0062 0c-85.9979,0 -128.997,-61.0065 -128.997,-182.828 0,-57.8432 12.6669,-103.334 38.0007,-136.501 25.3338,-33.1667 60.3355,-49.6679 105.169,-49.6679l47.8329 0 0 368.997zm0 315.002l89.9966 0 0 -715.002 -158.001 0c-48.6683,0 -90.1609,9.83225 -124.67,29.4967 -34.3307,19.6645 -60.1575,47.34 -77.494,82.999 -17.1722,35.5084 -25.8268,76.8367 -25.8268,123.67 0.657309,26.3334 5.81992,51.5029 15.8302,75.3304 9.83225,23.8412 24.3341,44.834 43.3276,63.1701 19.1715,18.1719 42.506,32.3314 70.1678,42.328 27.6618,10.0103 59.1715,15.0086 94.6662,15.0086l72.0027 0 0 282.999z"
   id="glyph4228" />
   <glyph
   unicode="e"
   horiz-adv-x="368"
   d="M342.17 432.003l0 -32.0027 -164.177 0c-11.6672,0 -19.6645,-1.16398 -23.8275,-3.32763 -4.16296,-2.34166 -6.16227,-8.83259 -6.16227,-19.6782l0 -132.996 161.164 0 0 -40.9997 -161.164 0 0 -141.992c0,-9.50359 3.32763,-17.0079 10.1609,-22.1705 6.66895,-5.16262 15.3372,-7.83293 26.0048,-7.83293l170.832 0 0 -31.0031 -228.168 0c-45.1626,0 -67.8398,24.6628 -67.8398,74.0021l0 278.165c0,26.8264 5.50496,46.8333 16.5012,59.9932 11.0099,13.1736 32.1671,19.8425 63.3345,19.8425l203.341 0z"
   id="glyph4230" />
   <glyph
   unicode="f"
   horiz-adv-x="260"
   d="M256.173 715.002l0 -42.999 -40.9997 0c-36.8367,0 -55.1729,-22.3348 -55.1729,-67.0045l0 -172.996 102.006 0 0 -40.9997 -102.006 0 0 -391.003 -89.9966 0 0 608.833c0,70.8388 52.3245,106.169 157.165,106.169l29.0038 0z"
   id="glyph4232" />
   <glyph
   unicode="g"
   horiz-adv-x="443"
   d="M395.166 352.003l-38.165 -26.1691c-18.6648,27.1688 -36.33,48.3396 -52.8312,63.4988 -16.5012,15.1729 -36.6724,22.6635 -60.1712,22.6635 -42.6703,0 -72.8381,-20.3355 -90.5033,-60.8285 -17.6652,-40.671 -26.4978,-85.3406 -26.4978,-134.173 0,-47.9973 6.9976,-88.4902 21.1708,-121.164 13.9952,-32.8244 32.3314,-54.5019 54.8305,-64.8271 14.6662,-6.34029 28.3328,-9.99658 40.9997,-10.9962 25.3338,0.492982 45.3406,9.83225 60.0068,28.1547 14.6662,18.3362 21.9925,40.671 21.9925,66.8401l0 99.9932 83.9986 0 0 -411.996 -83.9986 0 0 221.828c-30.8251,-23.1565 -66.3334,-34.8237 -107.004,-34.8237 -23.9918,0 -46.9976,3.99863 -68.9901,11.9959 -41.164,13.9952 -72.8381,39.6713 -94.6662,77.001 -21.8418,37.494 -33.3311,80.1643 -34.3307,127.997 1.32831,9.33927 1.99932,20.8422 1.99932,34.8374 6.83328,57.8295 25.9911,105.005 57.5009,141.499 31.4961,36.4944 78.3293,56.5012 140.5,59.6645 74.988,0 133.16,-30.3321 174.16,-90.9962z"
   id="glyph4234" />
   <glyph
   unicode="i"
   horiz-adv-x="222"
   d="M64.0055 432.003l91.9959 0 0 -432.003 -91.9959 0 0 432.003zm47.1619 100.993c-16.1725,0 -30.1678,5.99795 -42.1636,18.0075 -12.0096,11.8316 -18.0075,25.4981 -18.0075,40.9997 0,16.3369 5.99795,30.3321 17.8432,42.1636 11.9959,11.8316 25.9911,17.8295 42.328,17.8295 15.8302,0 29.6611,-5.83362 41.3283,-17.6652 11.6672,-11.8316 17.5009,-25.8268 17.5009,-42.328 0,-15.6659 -5.99795,-29.3324 -17.6652,-41.164 -11.6672,-11.8453 -25.4981,-17.8432 -41.164,-17.8432z"
   id="glyph4236" />
   <glyph
   unicode="m"
   horiz-adv-x="537"
   d="M102.006 0l-45.012 0 0 364.834c0,26.0048 5.17631,45.1626 15.6659,57.8295 10.5033,12.5026 26.6758,19.3358 48.3396,20.3355 23.4988,0 40.3287,-4.16296 50.5033,-12.5026 10.1609,-8.16159 18.6648,-22.8278 25.4981,-43.6563l69.0038 -214.68 3.99863 0 61.9925 222.841c9.17494,32.0027 30.1678,47.9973 63.0058,47.9973 25.1695,0 45.6693,-8.16159 61.4995,-24.3341 15.6659,-16.1588 23.4988,-37.494 23.4988,-63.8275l0 -354.837 -84.9983 0 0 350.168c0,15.1592 -3.99863,22.8278 -11.9959,22.8278 -4.01232,0 -6.01164,-0.657309 -6.01164,-1.83499 -3.1633,-2.16364 -7.83293,-11.1606 -13.9952,-27.1551l-88.1616 -313.002c-2.34166,-13.5022 -5.50496,-22.3348 -9.33927,-26.8401 -3.8343,-4.49161 -10.3252,-7.16193 -19.5002,-8.16159 -8.50394,0 -14.6662,2.67032 -18.1582,7.83293 -3.66998,5.16262 -7.17562,14.1595 -10.8456,27.1688l-95.9945 321c-5.66929,12.6669 -10.3389,19.1578 -14.1595,19.1578 -3.17699,0 -4.83396,-3.32763 -4.83396,-10.1609l0 -361z"
   id="glyph4238" />
   <glyph
   unicode="n"
   horiz-adv-x="462"
   d="M58.9935 0l0 366.998c0,21.0065 6.01164,37.1654 17.8432,48.3396 11.8316,11.1606 27.8261,16.6655 47.9973,16.6655 29.6611,0 53.6666,-14.3376 72.1671,-42.999l140.828 -208.997c7.83293,-13.6802 13.5022,-21.6775 17.0079,-24.0055 4.16296,1.32831 6.16227,14.9949 6.16227,40.9997l0 235.002 42.999 0 0 -397.001c0,-30.0034 -8.99692,-44.9983 -27.1688,-44.9983 -16.5012,0 -30.1678,8.66826 -40.9997,26.1691l-204.834 311.66c-1.65697,2.83465 -4.16296,6.83328 -7.66861,11.8316 -3.49195,5.16262 -6.9976,9.33927 -10.3252,12.3382 -1.99932,1.99932 -4.99829,2.99897 -9.17494,2.99897 -2.4923,0 -3.82061,-2.99897 -3.82061,-8.99692l0 -346.005 -41.0134 0z"
   id="glyph4240" />
   <glyph
   unicode="o"
   horiz-adv-x="480"
   d="M13.9952 210.832c0,49.3393 9.50359,90.9962 28.6751,125.341 19.3358,34.1664 44.834,59.8288 76.6587,76.9873 31.6741,17.3365 67.0045,27.1688 105.676,29.8391 32.8244,0 63.4988,-5.83362 92.4889,-17.5009 28.8394,-11.8316 54.1732,-27.8261 76.0014,-47.9973 21.8418,-20.3355 38.836,-43.3276 51.3386,-69.3324 12.5026,-26.0048 19.1715,-52.9955 20.1712,-81.164 0,-52.1739 -10.3389,-96.1725 -30.8388,-132.174 -20.6642,-36.1657 -47.9973,-62.8278 -82.328,-80.493 -34.1664,-17.5009 -71.5098,-26.3334 -111.838,-26.3334 -39.329,0.657309 -76.1657,11.4892 -110.661,32.66 -34.6731,21.1708 -62.3348,48.8326 -83.177,82.999 -20.8285,34.1664 -31.6604,70.0034 -32.1671,107.169zm226.005 201.164c-27.4974,0 -49.9966,-9.99658 -67.6618,-29.8254 -17.6652,-19.8425 -30.6744,-43.8343 -38.6717,-72.0027 -7.99726,-28.1684 -12.9955,-55.8302 -14.8305,-83.1633 0,-44.834 5.49127,-80.9997 16.1588,-108.168 9.01061,-27.4974 23.0058,-50.6676 42.3417,-69.4967 19.1578,-18.8429 40.1643,-28.3328 62.6635,-28.3328 21.6638,0 40.3287,6.3266 55.8302,19.1578 15.5015,12.8312 28.0041,29.1681 37.1654,49.1749 9.17494,19.9932 15.8439,41.3283 19.8425,63.9918 4.16296,22.8415 6.16227,43.9986 6.16227,63.6631 0,26.6758 -3.8343,55.0086 -11.5029,85.1763 -7.66861,30.1678 -20.3355,55.9945 -38.165,77.494 -17.8295,21.4995 -40.9997,32.3314 -69.3324,32.3314z"
   id="glyph4242" />
   <glyph
   unicode="r"
   horiz-adv-x="405"
   d="M58.9935 432.003l183.006 0c38.0007,0 70.0034,-11.1743 95.9945,-33.3311 26.0048,-22.1705 39.0003,-51.3386 39.0003,-87.5043 0,-27.1688 -7.99726,-48.5039 -24.1561,-63.6631 -16.1725,-15.1729 -38.836,-27.3331 -68.0041,-36.508l117.33 -210.996 -105.169 0 -107.99 216.994c5.32694,0 9.32557,-0.657309 11.9959,-1.82129 26.8401,0.821636 47.9973,10.1609 63.1701,27.6618 15.1592,17.5009 22.8278,40.3287 22.8278,68.3328 0,26.1691 -8.50394,47.5043 -25.4981,64.0055 -16.9942,16.4875 -39.1647,24.8271 -66.4978,24.8271l-46.9976 0 0 -400 -89.0106 0 0 432.003z"
   id="glyph4244" />
   <glyph
   unicode="s"
   horiz-adv-x="314"
   d="M262.006 426.169l0 -31.0031c-31.3454,3.1633 -56.0082,4.83396 -74.0021,4.83396 -26.1691,0 -46.6689,-4.32729 -61.3352,-13.1599 -14.8305,-8.84629 -24.3341,-24.3341 -28.8394,-46.6689 2.67032,-24.3341 20.0068,-44.6696 52.0096,-61.0065 40,-22.4991 67.9904,-38.836 83.6563,-49.1612 15.6659,-10.1746 30.5101,-25.1695 44.5053,-44.834 13.9952,-19.5002 20.9928,-43.67 20.9928,-72.1671 -0.821636,-41.5063 -17.3228,-70.6744 -49.6542,-87.6686 -32.3451,-16.8299 -71.0031,-25.3338 -116.344,-25.3338 -46.1623,0 -82.1636,3.99863 -108.168,11.9959l0 27.0045c16.1725,-1.99932 43.5056,-4.66963 82.1773,-7.99726 35.3304,0.999658 61.1571,6.83328 77.494,17.5009 16.3369,10.6676 24.4985,27.1688 24.4985,49.4899 0,20.6779 -7.49059,37.001 -22.6635,49.1749 -15.1729,12.1602 -39.0003,26.8264 -71.4961,44.163 -32.5094,17.3365 -57.0079,34.495 -73.6734,51.3386 -16.6655,16.9942 -24.9914,39.1647 -24.9914,66.4978 0,40.493 14.9949,71.1674 45.1626,91.8316 30.1678,20.6642 66.3334,31.0031 108.497,31.0031 7.50428,0 17.0079,-0.342349 28.3328,-0.999658 11.5029,-0.671003 21.3352,-1.34201 30.0034,-1.99932 8.50394,-0.83533 19.8288,-1.67066 33.8377,-2.83465z"
   id="glyph4246" />
   <glyph
   unicode="t"
   horiz-adv-x="277"
   d="M6.16227 432.003l264.841 0 0 -32.0027 -86.9976 0 0 -400 -90.0103 0 0 400 -87.8329 0 0 32.0027z"
   id="glyph4248" />
   <glyph
   unicode="u"
   horiz-adv-x="426"
   d="M54.9949 432.003l90.0103 0 0 -311.003c0,-23.0058 7.16193,-42.506 21.6638,-58.5005 14.5019,-15.9945 35.3304,-24.4985 62.3348,-25.4981 30.1678,0 54.1595,9.83225 72.1671,29.4967 17.8295,19.8288 26.8264,48.8326 26.8264,87.5043l0 278.001 40.9997 0 0 -300.842c0,-29.1544 -6.3266,-54.6662 -18.9935,-76.1657 -12.5026,-21.6638 -30.6744,-38.3293 -54.3376,-49.8322 -23.6631,-11.4892 -51.3386,-17.1585 -82.6703,-17.1585 -105.334,2.16364 -158.001,51.1606 -158.001,146.991l0 297.008z"
   id="glyph4250" />
   <glyph
   unicode="w"
   horiz-adv-x="594"
   d="M93.9952 432.003l105.005 -351.838c4.99829,-19.5002 10.9962,-29.1681 17.9938,-29.1681 4.34098,0 9.33927,9.66792 14.8442,29.1681l39.1647 130.832 -66.0048 221.007 99.8288 0 105.005 -354.166c3.32763,-17.8295 7.99726,-26.8401 14.1732,-26.8401 5.49127,0 9.16125,1.50633 11.1606,4.50531 1.99932,2.83465 4.66963,11.1606 7.99726,24.6628l101.842 351.838 48.9969 0 -114.002 -384.841c-6.3266,-22.6635 -14.5019,-38.0007 -24.1698,-45.8336 -9.83225,-7.83293 -26.3334,-12.3245 -49.8322,-13.3242 -20.9928,0 -38.4937,3.49195 -52.3245,10.3252 -13.8446,6.83328 -24.3341,21.6775 -31.6741,44.6696l-27.1688 93.9952 -1.83499 0 -24.9914 -83.9986c-6.17597,-21.3352 -15.5015,-37.494 -28.1684,-48.4902 -12.6669,-11.0099 -29.8391,-16.5012 -51.8316,-16.5012 -20.8422,0.999658 -37.1654,6.66895 -48.6683,17.1585 -11.6672,10.5033 -21.1708,27.8398 -28.3328,51.6672l-113.002 375.173 95.9945 0z"
   id="glyph4252" />
   <glyph
   unicode="ü"
   horiz-adv-x="426"
   d="M54.9949 432.003l90.0103 0 0 -311.003c0,-23.0058 7.16193,-42.506 21.6638,-58.5005 14.5019,-15.9945 35.3304,-24.4985 62.3348,-25.4981 30.1678,0 54.1595,9.83225 72.1671,29.4967 17.8295,19.8288 26.8264,48.8326 26.8264,87.5043l0 278.001 40.9997 0 0 -300.842c0,-29.1544 -6.3266,-54.6662 -18.9935,-76.1657 -12.5026,-21.6638 -30.6744,-38.3293 -54.3376,-49.8322 -23.6631,-11.4892 -51.3386,-17.1585 -82.6703,-17.1585 -105.334,2.16364 -158.001,51.1606 -158.001,146.991l0 297.008zm82.999 92.9955c-10.4896,0 -20.6642,4.50531 -30.4964,13.1736 -9.66792,8.83259 -14.6662,18.8292 -14.6662,29.8254 0,12.0096 4.34098,22.0062 13.1736,30.4964 8.66826,8.33961 19.3221,12.5026 31.989,12.5026 12.0096,0 22.1705,-4.16296 30.5101,-12.3245 8.16159,-8.33961 12.3245,-18.5005 12.3245,-30.6744 0,-11.1606 -4.49161,-21.1571 -13.6666,-29.8254 -9.16125,-8.83259 -18.9935,-13.1736 -29.1681,-13.1736zm164.012 0c-10.5033,0 -20.3355,4.34098 -29.5104,13.1736 -8.99692,8.66826 -13.6666,18.6648 -13.6666,29.8254 0,11.8316 4.34098,21.8418 12.6669,30.3321 8.50394,8.50394 18.6648,12.6669 30.5101,12.6669 11.9959,0 22.1568,-4.16296 30.4964,-12.3245 8.32592,-8.33961 12.3245,-18.5005 12.3245,-30.6744 0,-10.9962 -4.49161,-20.9928 -13.6666,-29.8254 -9.16125,-8.66826 -18.9935,-13.1736 -29.1544,-13.1736z"
   id="glyph4254" />
  </font>
  <font
   id="FontID1"
   horiz-adv-x="740"
   font-variant="normal"
   font-weight="400"
   horiz-origin-x="0"
   horiz-origin-y="0"
   vert-origin-x="45"
   vert-origin-y="90"
   vert-adv-y="90"
   style="font-variant:normal;font-weight:400">
	<font-face
   font-family="Avalon"
   id="font-face4257">
		<font-face-src>
			<font-face-name
   name="Avalon" />
		</font-face-src>
	</font-face>
   <missing-glyph
   id="missing-glyph4261"><path
     d="M0 0z"
     id="path4259" /></missing-glyph>
   <glyph
   unicode=" "
   horiz-adv-x="277"
   d=""
   id="glyph4263" />
   <glyph
   unicode="G"
   horiz-adv-x="871"
   d="M45.0044 368.836c0.664917,59.3351 12.0035,112.668 34.3307,160.157 22.1697,47.6815 51.8285,87.839 88.9939,120.507 37.0079,32.8259 78.3377,57.8303 123.832,75.1706 45.5118,17.1654 91.3386,26.3342 137.848,27.3316 36.1505,0 71.986,-4.33946 107.489,-13.0009 35.3281,-8.50394 68.9939,-21.6623 101.172,-39.1776 32.0035,-17.4978 60.9974,-39.4926 86.6667,-65.9843 25.8268,-26.5092 46.3342,-56.8329 61.6623,-90.8486l-86.1592 0c-17.0079,29.8338 -39.8425,55.1706 -68.5039,76.0105 -28.5039,20.8224 -60.175,36.5004 -94.8381,47.1566 -34.6632,10.5162 -69.8338,15.8355 -105.669,15.8355 -47.8215,-1.48731 -91.1636,-11.1636 -130.324,-29.3263 -39.0026,-18.0052 -72.1785,-41.9948 -99.5101,-72.0035 -27.1566,-29.9913 -47.9965,-63.3246 -62.5022,-100 -14.4882,-36.6579 -21.9948,-73.8233 -22.4847,-111.671 0,-60.8224 15.993,-114.488 47.8215,-161.155 31.846,-46.5092 72.336,-82.8346 121.33,-108.679 49.0114,-26.0017 97.5153,-40 145.669,-42.1522 37.3403,0 77.6728,7.66404 121.172,22.8171 43.3246,15.1706 82.6597,39.3351 117.83,72.336 35.1706,32.8434 58.8276,73.8408 71.0061,122.835l-411.829 0 0 66.9991 501.995 0c-6.99913,-57.8303 -22.8346,-109.169 -47.1741,-154.156 -24.322,-45.0044 -54.8206,-82.1697 -91.3211,-111.514 -36.6754,-29.4838 -77.0079,-51.4961 -121.347,-66.1592 -44.1645,-14.8381 -90.1662,-22.1697 -138.163,-22.1697 -50.4987,0.507437 -99.3351,10.4987 -146.334,30.0087 -46.8241,19.4926 -88.6614,46.8241 -125.337,81.8198 -36.6579,35.0131 -65.4943,75.5031 -86.1592,121.68 -20.8399,46.1592 -31.1636,95.3281 -31.1636,147.332z"
   id="glyph4265" />
   <glyph
   unicode="H"
   horiz-adv-x="684"
   d="M75.993 0l0 740 74.0157 0 0 -324.007 384.987 0 0 324.007 72.0035 0 0 -740 -72.0035 0 0 347.997 -384.987 0 0 -347.997 -81.8373 0 7.82152 0z"
   id="glyph4267" />
   <glyph
   unicode="b"
   horiz-adv-x="681"
   d="M62.9921 0l0 740 76.0105 0 0 -297.008c18.1627,32.6684 46.1592,60 83.832,82.0122 37.6728,21.9948 78.8276,33.9983 123.167,35.993 55.3281,0 105.162,-13.1584 149.659,-39.4926 44.5144,-26.1767 79.5101,-60 105.004,-101.172 25.3368,-41.1724 38.8276,-82.9921 40.3325,-125.494 0,-54.3307 -10.9886,-104.829 -33.0009,-151.339 -22.1697,-46.4917 -54.1557,-84.007 -96.5004,-112.161 -42.1697,-28.3465 -91.671,-43.3421 -148.329,-45.3368 -33.9983,0 -66.0017,4.16448 -95.6605,12.6684 -29.6763,8.50394 -56.0105,20.8224 -79.0026,37.3228 -22.8346,16.343 -41.3298,36.343 -55.3456,59.8425l0 -95.8355 -70.1662 0zm70.1662 291.006c0,-31.0061 4.18198,-60.175 12.6684,-87.5066 8.50394,-27.5066 22.0122,-52.0035 40.3325,-73.6658 18.5127,-21.6623 42.3447,-38.8276 71.671,-51.3386 29.1689,-12.4934 63.6745,-19.0026 103.342,-19.4926 35.5031,0 68.9939,9.50131 100.49,28.329 31.4961,18.8276 56.6754,45.4943 75.8355,80 19.0026,34.6632 28.5039,73.6658 28.5039,117.498 0,27.9965 -6.00175,54.5057 -18.1627,79.3351 -12.1785,25.0044 -28.5039,46.6667 -49.1689,65.1619 -20.5074,18.3377 -43.832,32.8434 -70.0087,43.1671 -26.1592,10.3412 -53.0009,15.5031 -80.6649,15.5031 -28.8364,0 -60.1575,-7.66404 -93.9983,-22.8346 -33.8233,-15.1531 -62.5022,-37.8303 -85.8268,-67.664 -23.3421,-29.8338 -35.0131,-65.3368 -35.0131,-106.492z"
   id="glyph4269" />
   <glyph
   unicode="e"
   horiz-adv-x="649"
   d="M42.9921 277.008c1.17235,43.832 9.67629,83.1671 25.8443,118.163 15.993,34.9956 37.4978,64.8294 64.6719,89.5013 27.1566,24.6544 57.3228,43.4996 90.4987,56.3255 33.1584,12.8434 67.1566,19.5101 101.82,20 46.8416,0 92.0035,-11.3386 135.836,-33.9983 43.6745,-22.8346 79.5101,-56.8329 107.507,-102.327 27.839,-45.5118 41.8373,-99.8425 41.8373,-162.677l0 -13.9983 -493.998 0c3.1671,-40.4899 15.6605,-74.9956 37.3228,-103.657 21.6623,-28.5039 47.839,-50.0087 78.6702,-64.1645 30.8311,-14.1732 61.1724,-21.1724 91.0061,-21.1724 26.4917,0 53.1584,5.33683 80.3325,15.8355 26.9991,10.6562 50.8311,25.1619 71.4961,43.657 20.8399,18.5127 35.5031,39.0026 44.1645,61.3298l75.8355 0c-15.3281,-41.9948 -37.6728,-77.4978 -66.9991,-106.492 -29.3438,-28.9939 -62.1697,-50.4987 -98.6702,-64.4969 -36.3255,-13.8408 -73.0009,-20.8399 -110.166,-20.8399 -48.6614,1.99475 -94.1732,14.9956 -136.5,39.0026 -42.3272,24.007 -76.5004,57.6728 -101.995,100.84 -25.6693,43.3246 -38.5127,93.0009 -38.5127,149.169zm496.01 36.9904c-6.17673,31.4961 -19.1776,60.8399 -39.0026,87.664 -19.6675,26.8416 -44.6719,48.3465 -74.6632,64.3395 -30.0087,15.993 -62.5022,24.007 -97.4978,24.007 -46.8416,0 -85.8443,-11.1811 -116.833,-33.3333 -31.1811,-22.1697 -53.9983,-47.0166 -68.6789,-74.5057 -14.6632,-27.3316 -23.1671,-50.1662 -25.3193,-68.1715l421.995 0z"
   id="glyph4271" />
   <glyph
   unicode="g"
   horiz-adv-x="673"
   d="M42.9921 274.838c0,57.3228 13.3333,107.489 40.175,150.656 26.8416,43.1671 60.9974,76.343 102.835,99.5101 41.6623,23.1671 84.3395,35.1706 127.997,35.993 33.3333,0 65.0044,-5.00437 94.9956,-14.8381 30.1662,-9.99125 56.6754,-24.322 79.6675,-42.8171 23.0096,-18.6702 40.5074,-40.175 52.336,-64.3395l0 109.991 70.0087 0 0 -501.995c0,-41.8373 -7.33158,-79.0026 -21.8373,-111.164 -14.5057,-32.336 -34.5057,-59.1776 -59.6675,-80.5074 -25.1619,-21.3298 -54.1732,-37.4978 -86.5092,-48.154 -32.4934,-10.8486 -66.1592,-16.168 -100.997,-16.168 -31.1636,0 -61.8198,4.16448 -91.8285,12.6684 -29.8338,8.48644 -57.4978,20.9974 -82.6597,37.6553 -25.1794,16.5004 -46.9991,37.3403 -65.1794,61.9948 -18.1627,24.8469 -31.3211,53.1759 -39.3351,84.6719l72.0035 0c18.0052,-42.1697 45.5118,-74.1557 82.5022,-95.993 37.0079,-22.0122 77.1654,-33.0009 120.332,-33.0009 35.8355,0 69.3438,7.48906 100.332,22.3272 31.0061,14.8381 55.8355,36.6754 74.6632,65.6693 18.8451,28.8364 28.1715,62.8346 28.1715,101.995l0 59.8425c-43.3246,-80.5074 -114.331,-120.84 -213.158,-120.84 -33.9983,0 -67.839,6.33421 -101.68,18.8451 -33.6658,12.4934 -64.322,31.1636 -91.8285,55.818 -27.4891,24.5144 -49.5013,55.0131 -66.0017,91.1811 -16.3255,35.993 -24.8294,76.5004 -25.3368,120.997zm74.0157 14.1557c0,-45.8268 9.32633,-86.1592 28.154,-120.822 18.8451,-34.6632 44.1645,-61.3298 75.8355,-80 31.671,-18.6702 66.6667,-28.3465 105.004,-29.1689 29.9913,0 61.8373,7.83902 95.3281,23.4996 33.3333,15.5031 61.6623,40.3325 84.8294,73.9983 23.1671,33.8408 34.8381,75.993 34.8381,126.334 0,25.6693 -5.66929,50.8311 -17.1654,75.6605 -11.3386,24.8469 -27.1566,46.9991 -47.3316,66.3342 -20.175,19.5101 -43.832,34.8381 -70.8311,46.1767 -27.1741,11.3211 -55.6605,16.9904 -85.4943,16.9904 -52.336,-1.32983 -93.5083,-14.9956 -123.675,-40.9974 -30.1662,-26.0017 -51.0061,-54.5057 -62.3272,-85.1619 -11.5136,-30.8311 -17.1654,-54.9956 -17.1654,-72.8434z"
   id="glyph4273" />
   <glyph
   unicode="i"
   horiz-adv-x="199"
   d="M62.9921 0l0 546.999 74.0157 0 0 -546.999 -74.0157 0zm0 613.001l0 126.999 74.0157 0 0 -126.999 -74.0157 0z"
   id="glyph4275" />
   <glyph
   unicode="m"
   horiz-adv-x="938"
   d="M62.9921 546.999l70.1662 0 0 -74.1732c13.0009,27.3491 32.6684,48.5039 59.0026,63.4996 26.3342,15.1706 55.3456,22.6772 86.8416,22.6772 38.3377,0 74.8381,-9.16885 109.501,-27.664 34.6632,-18.3377 62.1697,-43.832 82.5022,-76.343 19.4926,33.5083 44.9869,58.8451 76.3255,76.0105 31.4961,17.3228 64.3395,26.0017 98.6702,26.0017 29.1689,0 57.4978,-5.17935 85.1619,-15.678 27.5066,-10.4987 52.0035,-25.3368 73.5083,-44.322 21.4873,-19.1776 38.6702,-42.0122 51.3211,-68.6789 12.6684,-26.6667 19.0026,-55.5031 19.0026,-86.1592l0 -342.17 -72.0035 0 0 330.009c0,32.9834 -7.15661,61.3298 -21.6623,84.9869 -14.3307,23.4996 -33.3333,41.3298 -56.9904,53.1759 -23.4996,11.8285 -49.0114,17.8303 -76.343,17.8303 -24.6544,0 -47.664,-5.33683 -69.1689,-15.993 -21.4873,-10.6737 -38.6527,-26.5092 -51.4961,-47.5066 -12.8259,-20.9974 -19.3351,-45.8268 -19.3351,-74.6632l0 -347.839 -75.993 0 0 335.836c0,30.6562 -7.33158,57.3228 -22.1697,80.1575 -14.6632,22.6772 -33.9983,40.175 -58.0052,52.0035 -23.832,12.0035 -49.5013,18.0052 -76.8329,18.0052 -24.9869,0 -47.8215,-5.49431 -68.8364,-16.5004 -20.9974,-11.0061 -37.8303,-27.664 -50.3237,-49.8338 -12.4934,-22.3272 -18.8276,-49.6588 -18.8276,-81.8373l0 -337.83 -74.0157 0 0 546.999z"
   id="glyph4277" />
   <glyph
   unicode="n"
   horiz-adv-x="608"
   d="M62.9921 0l0 546.999 70.1662 0 0 -81.9948c18.0052,30.1662 42.6772,53.3333 73.8408,69.6588 31.3386,16.168 64.4969,24.3395 99.8425,24.3395 30.8311,0 60.4899,-5.49431 89.1514,-16.6754 28.5039,-10.9886 54.1732,-27.1566 76.8329,-48.329 22.6772,-21.1724 40.6824,-47.5066 54.0157,-79.0026 13.4908,-31.6535 20.1575,-66.8241 20.1575,-106.002l0 -308.994 -72.0035 0 0 308.994c0,37.8478 -8.15398,70.0087 -24.322,96.8329 -16.168,26.8416 -37.3403,46.8416 -63.6745,60.175 -26.3342,13.3333 -54.3307,20 -84.007,20 -29.1514,0 -56.3255,-6.33421 -81.4873,-19.1601 -25.3368,-12.8434 -45.6693,-31.846 -61.1724,-57.3403 -15.5031,-25.4943 -23.3246,-55.993 -23.3246,-91.4961l0 -318.005 -74.0157 0z"
   id="glyph4279" />
   <glyph
   unicode="r"
   horiz-adv-x="300"
   d="M64.007 0l0 548.994 69.1514 0 0 -81.9948c30.3412,62.6597 83.6745,93.9983 159.843,93.9983l0 -74.9956c-17.3403,0 -35.1706,-3.67454 -53.6658,-11.0061 -18.6702,-7.33158 -35.6605,-17.6553 -51.1636,-31.1636 -15.5031,-13.4908 -27.9965,-29.3263 -37.3403,-47.3316 -9.16885,-18.1627 -13.8233,-37.6728 -13.8233,-58.6702l0 -337.83 -73.0009 0z"
   id="glyph4281" />
  </font>
  <font
   id="FontID0"
   horiz-adv-x="905"
   font-variant="normal"
   font-weight="400"
   horiz-origin-x="0"
   horiz-origin-y="0"
   vert-origin-x="45"
   vert-origin-y="90"
   vert-adv-y="90"
   style="font-variant:normal;font-weight:400">
	<font-face
   font-family="Braggadocio"
   id="font-face4284">
		<font-face-src>
			<font-face-name
   name="Braggadocio" />
		</font-face-src>
	</font-face>
   <missing-glyph
   id="missing-glyph4288"><path
     d="M0 0z"
     id="path4286" /></missing-glyph>
   <glyph
   unicode="A"
   horiz-adv-x="905"
   d="M213.669 471.165l128 304.835 232.331 0 335 -776 -499 0 -139.165 334 -70.8346 0 137.669 -334 -324.669 0 165 390 68.8346 0 -33.1654 81.1654z"
   id="glyph4290" />
   <glyph
   unicode="I"
   horiz-adv-x="551"
   d="M68 770l439 0 0 -770 -439 0 0 770z"
   id="glyph4292" />
   <glyph
   unicode="S"
   horiz-adv-x="844"
   d="M318.165 765l413 -338.331c39,-31.1654 67,-62 84,-92.3386 17.1654,-30.8268 25.8346,-65.3307 25.8346,-103.331 0,-47 -13,-89.3307 -39,-127 -25.8346,-37.8346 -61.1654,-65.8346 -106,-84 -12.3307,-5.16535 -23,-8.83465 -31.6693,-10.6693 -12.4961,-3 -24.8268,-5.16535 -37.1654,-6.33071 -14,-1.33071 -31,-2.33071 -50.8346,-3 -52.6614,36.8346 -90.1654,63 -112.331,78.6693 -22,15.4961 -48.3307,34.4961 -78.4961,56.4961 -49.1732,36.1654 -96.6693,73.8346 -142.669,112.835 -44.8346,37.1654 -80.5039,70.1654 -106.835,99.1654 -26,27.6693 -44.6693,51.8346 -55.6693,72.6693 -8.82677,17.3307 -15.6614,36.1654 -20.4961,56.6693 -5.16535,20.4961 -7.83465,39.6614 -7.83465,57.4961 0,49.5039 12.6693,92.5039 38,129 25.5039,36.8346 61.1654,64.3307 107,83 17.8346,6.83465 35.6693,11.6693 53.1654,14.6693 17.3386,2.49606 40,4 68,4.33071zm-261.835 -765l0 322 410.669 -322 -410.669 0zm739.669 458l-379.835 312 379.835 0 0 -312z"
   id="glyph4294" />
  </font>
</defs>
</svg>
